Wednesday, September 12, 2012

BIGUL Bhojpuri Movie ALL Videos


VIDEO FORMATE :AVC

MEDIA INFO

General
Format                         : MPEG-4
Format profile                 : Base Media / Version 2
Codec ID                       : mp42
File size                      : 61.2 MiB
Duration                       : 5mn 24s
Overall bit rate mode          : Variable
Overall bit rate               : 1 580 Kbps
Encoded date                   : UTC 2012-08-25 19:08:51
Tagged date                    : UTC 2012-08-25 19:08:51
gsst                           : 0
gstd                           : 325055
gssd                           : B4A7DA9E4HH1347443169939297


Video
ID                             : 1
Format                         : AVC
Format/Info                    : Advanced Video Codec
Format profile                 : High@L3.1
Format settings, CABAC         : Yes
Format settings, ReFrames      : 1 frame
Codec ID                       : avc1
Codec ID/Info                  : Advanced Video Coding
Duration                       : 5mn 24s
Bit rate                       : 1 386 Kbps
Maximum bit rate               : 4 952 Kbps
Width                          : 1 280 pixels
Height                         : 546 pixels
Display aspect ratio           : 2.35:1
Frame rate mode                : Constant
Frame rate                     : 24.000 fps
Color space                    : YUV
Chroma subsampling             : 4:2:0
Bit depth                      : 8 bits
Scan type                      : Progressive
Bits/(Pixel*Frame)             : 0.083
Stream size                    : 53.7 MiB (88%)
Tagged date                    : UTC 2012-08-25 19:08:51

Audio
ID                             : 2
Format                         : AAC
Format/Info                    : Advanced Audio Codec
Format profile                 : LC
Codec ID                       : 40
Duration                       : 5mn 24s
Bit rate mode                  : Variable
Bit rate                       : 192 Kbps
Maximum bit rate               : 201 Kbps
Channel(s)                     : 2 channels
Channel positions              : Front: L R
Sampling rate                  : 44.1 KHz
Compression mode               : Lossy
Stream size                    : 7.44 MiB (12%)
Title                          : IsoMedia File Produced by Google, 5-11-2011
Encoded date                   : UTC 2012-08-25 19:08:51
Tagged date                    : UTC 2012-08-25 19:08:51






No comments:

Post a Comment

Comments are currently Closed

FB comment